<?xml version="1.0" standalone="no"?>
<!DOCTYPE svg PUBLIC "-//W3C//DTD SVG 1.1//EN" "http://www.w3.org/Graphics/SVG/1.1/DTD/svg11.dtd" >
<svg xmlns="http://www.w3.org/2000/svg">
<metadata>Generated by IcoMoon</metadata>
<defs>
<font id="icomoon" horiz-adv-x="1024">
<font-face units-per-em="1024" ascent="960" descent="-64" />
<missing-glyph horiz-adv-x="1024" />
<glyph unicode="&#x20;" horiz-adv-x="512" d="" />
<glyph unicode="&#xe900;" glyph-name="web-development" d="M498.109 208.65c-3.741-3.728-5.859-8.883-5.859-14.15 0-5.258 2.118-10.422 5.859-14.141 3.728-3.725 8.867-5.866 14.15-5.866 5.258 0 10.419 2.141 14.141 5.866 3.725 3.718 5.866 8.883 5.866 14.141 0 5.267-2.141 10.422-5.866 14.15-3.722 3.718-8.883 5.859-14.141 5.859-5.29 0-10.422-2.141-14.15-5.859zM742.259 146.483c-5.267 0-10.422-2.141-14.15-5.866-3.718-3.718-5.859-8.883-5.859-14.141 0-5.267 2.141-10.422 5.859-14.147 3.728-3.722 8.883-5.862 14.15-5.862 5.258 0 10.419 2.141 14.141 5.862 3.725 3.725 5.866 8.88 5.866 14.147 0 5.258-2.141 10.422-5.866 14.141-3.722 3.725-8.883 5.866-14.141 5.866zM870.314 810.734h-18.006v131.258c0 11.047-8.954 20.008-20.010 20.008h-640.243c-11.047 0-20.008-8.961-20.008-20.008v-131.258h-18.008c-55.164 0-100.039-44.875-100.039-100.039v-504.196c0-55.158 44.875-100.032 100.039-100.032h258.172v-48.47c-54.266-1.046-98.086-45.482-98.086-99.99 0-11.046 8.963-20.010 20.009-20.010h356.234c11.046 0 20.010 8.963 20.010 20.010 0 54.509-43.83 98.944-98.086 99.99v48.47h55.958c11.050 0 20.010 8.954 20.010 20.006 0 11.050-8.96 20.010-20.010 20.010h-514.21c-33.102 0-60.024 26.922-60.024 60.016v36.016h836.32v-36.016c0-33.094-26.922-60.016-60.022-60.016h-46.016c-11.046 0-20.006-8.96-20.006-20.010 0-11.053 8.96-20.006 20.006-20.006h46.016c55.165 0 100.038 44.874 100.038 100.032v504.196c0 55.164-44.874 100.039-100.038 100.039zM666.931-21.987h-309.37c8.259 23.29 30.518 40.016 56.602 40.016h196.173c26.086 0 48.336-16.726 56.595-40.016zM572.275 106.467v-48.022h-120.048v48.022h120.048zM812.291 921.984v-89.633h-600.228v89.633h600.228zM212.063 282.531v261.702c0 11.046-8.961 20.006-20.008 20.006s-20.008-8.96-20.008-20.006v-261.702h-78.031v428.164c0 33.102 26.922 60.024 60.024 60.024h18.008v-70.422c0-11.055 8.961-20.008 20.008-20.008s20.008 8.953 20.008 20.008v92.039h600.228v-509.804h-600.228zM852.307 282.531v488.187h18.006c33.101 0 60.022-26.922 60.022-60.024v-428.164h-78.029zM530.134 857.156h206.749c11.046 0 20.006 8.961 20.006 20.008 0 11.055-8.96 20.008-20.006 20.008h-206.749c-11.050 0-20.010-8.953-20.010-20.008 0-11.047 8.96-20.008 20.010-20.008zM335.507 857.156c5.267 0 10.429 2.141 14.15 5.867 3.718 3.719 5.859 8.883 5.859 14.141 0 5.266-2.134 10.422-5.859 14.148-3.722 3.719-8.883 5.859-14.15 5.859-5.28 0-10.422-2.14-14.141-5.859-3.718-3.727-5.866-8.867-5.866-14.148 0-5.258 2.14-10.422 5.866-14.141 3.718-3.726 8.883-5.867 14.141-5.867zM262.258 857.156c5.258 0 10.422 2.141 14.14 5.867 3.742 3.719 5.867 8.883 5.867 14.141 0 5.266-2.125 10.422-5.867 14.148-3.719 3.719-8.883 5.859-14.14 5.859-5.266 0-10.422-2.14-14.148-5.859-3.719-3.727-5.86-8.883-5.86-14.148 0-5.258 2.141-10.422 5.86-14.141 3.726-3.726 8.883-5.867 14.148-5.867zM408.758 857.156c5.28 0 10.422 2.141 14.141 5.867 3.741 3.719 5.866 8.883 5.866 14.141 0 5.266-2.125 10.422-5.866 14.148-3.718 3.719-8.883 5.859-14.141 5.859-5.267 0-10.422-2.14-14.15-5.859-3.718-3.727-5.859-8.883-5.859-14.148 0-5.258 2.141-10.422 5.859-14.141 3.728-3.726 8.883-5.867 14.15-5.867zM192.008 642.273c-5.266 0-10.43-2.14-14.148-5.86-3.719-3.725-5.86-8.88-5.86-14.147 0-5.258 2.133-10.422 5.86-14.141 3.719-3.728 8.883-5.866 14.148-5.866 5.258 0 10.422 2.138 14.14 5.866 3.719 3.718 5.867 8.883 5.867 14.141 0 5.267-2.14 10.422-5.867 14.147-3.719 3.72-8.883 5.86-14.14 5.86zM403.926 635.501c-7.811 7.812-20.474 7.812-28.294 0l-88.142-88.15c-7.82-7.811-7.82-20.477 0-28.294l88.142-88.141c3.904-3.907 9.024-5.862 14.147-5.862 5.117 0 10.243 1.955 14.147 5.862 7.814 7.811 7.814 20.483 0 28.294l-74 73.994 74 73.994c7.814 7.818 7.814 20.483 0 28.304zM648.781 635.501c-7.811 7.812-20.477 7.812-28.298 0-7.811-7.814-7.811-20.486 0-28.298l73.994-74-73.994-73.994c-7.811-7.811-7.811-20.483 0-28.294 3.907-3.907 9.034-5.862 14.15-5.862s10.24 1.955 14.147 5.862l88.141 88.147c7.814 7.811 7.814 20.477 0 28.298l-88.141 88.141zM559.037 637.536c-10.109 4.491-21.923-0.064-26.406-10.157l-77.398-174.195c-4.493-10.102 0.061-21.923 10.154-26.416 2.643-1.171 5.402-1.725 8.118-1.725 7.664 0 14.976 4.429 18.298 11.888l77.398 174.198c4.483 10.099-0.070 21.92-10.163 26.406z" />
<glyph unicode="&#xe901;" glyph-name="arrow-down" horiz-adv-x="1707" d="M1527.202 882.667h-1347.128c-109.227 0-163.84-131.983-86.471-209.351l589.37-589.368c94.435-94.437 248.035-94.437 342.47 0l589.37 589.368c76.23 77.368 21.617 209.351-87.61 209.351z" />
<glyph unicode="&#xe902;" glyph-name="arrow-right" horiz-adv-x="1303" d="M821.281-28.155c-13.265 0-26.531 4.887-37.004 15.36-20.247 20.247-20.247 53.76 0 74.007l386.793 386.793-386.793 386.791c-20.247 20.247-20.247 53.76 0 74.007s53.76 20.247 74.007 0l423.796-423.795c20.247-20.247 20.247-53.76 0-74.007l-423.796-423.796c-10.473-10.473-23.738-15.36-37.004-15.36zM1233.222 395.636h-1175.040c-28.625 0-52.364 23.738-52.364 52.364s23.738 52.364 52.364 52.364h1175.040c28.625 0 52.364-23.738 52.364-52.364s-23.738-52.364-52.364-52.364z" />
<glyph unicode="&#xe903;" glyph-name="android" d="M414.208 799.711c-28.854 0-52.333-23.37-52.333-52.098 0-28.87 23.478-52.358 52.333-52.358 28.87 0 52.358 23.488 52.358 52.358 0 28.728-23.488 52.098-52.358 52.098zM414.208 736.051c-6.47 0-11.536 5.080-11.536 11.562 0 6.336 5.066 11.3 11.536 11.3 6.592 0 11.562-4.856 11.562-11.3 0-6.482-5.075-11.562-11.562-11.562zM609.859 799.711c-28.87 0-52.358-23.37-52.358-52.098 0-28.87 23.488-52.358 52.358-52.358 28.854 0 52.333 23.488 52.333 52.358 0 28.728-23.478 52.098-52.333 52.098zM609.859 736.051c-6.486 0-11.565 5.080-11.565 11.562 0 6.442 4.973 11.3 11.565 11.3 6.576 0 11.536-4.856 11.536-11.3 0-6.482-5.069-11.562-11.536-11.562zM849.885 649.1h-2.509c-14.093 0-27.331-3.708-38.826-10.175v21.205c0 87.83-50.886 169.333-133.994 216.591l48.454 48.454c7.965 7.966 7.965 20.882 0 28.85-7.968 7.966-20.88 7.966-28.851 0l-58.55-58.55c-38.95 15.518-80.499 23.404-123.558 23.404-43.184 0-84.8-7.892-123.763-23.418l-58.56 58.564c-7.968 7.966-20.881 7.966-28.852 0-7.966-7.966-7.966-20.882 0-28.85l48.452-48.45c-83.109-47.274-133.995-128.78-133.995-216.596v-21.205c-11.494 6.469-24.734 10.175-38.824 10.175h-2.506c-44.046 0-79.878-35.833-79.878-79.875v-258.966c0-44.077 35.832-79.939 79.878-79.939h2.506c14.092 0 27.33 3.709 38.824 10.182v-30.090c0-41.315 34.014-74.928 75.824-74.928h38.015v-119.613c0-44.042 35.859-79.875 79.936-79.875h2.448c44.077 0 79.939 35.834 79.939 79.875v119.613h40.934v-119.613c0-44.042 35.84-79.875 79.891-79.875h2.49c44.058 0 79.898 35.834 79.898 79.875v119.613h38.058c41.782 0 75.776 33.613 75.776 74.928v30.093c11.494-6.474 24.736-10.186 38.829-10.186h2.506c44.045 0 79.878 35.862 79.878 79.939v258.963c0.006 44.045-35.824 79.878-79.869 79.878zM215.335 310.256c0.002-21.581-17.414-39.139-38.822-39.139h-2.51c-21.548 0-39.082 17.558-39.082 39.142v258.963c0 21.549 17.532 39.078 39.082 39.078h2.506c21.408 0 38.824-17.53 38.824-39.078l0.002-258.966zM767.754 210.416c-0.003-18.502-16.022-34.131-34.982-34.131h-58.458c-11.264 0-20.397-9.133-20.397-20.397v-140.010c0-21.546-17.542-39.082-39.101-39.082h-2.49c-21.555 0-39.094 17.53-39.094 39.082v140.010c0 11.264-9.133 20.397-20.397 20.397h-81.734c-11.264 0-20.397-9.133-20.397-20.397v-140.010c0-21.546-17.558-39.082-39.139-39.082h-2.448c-21.581 0-39.139 17.53-39.139 39.082v140.010c0 11.264-9.136 20.397-20.4 20.397h-58.411c-19.316 0-35.028 15.312-35.028 34.131v410.72h380.236c11.264 0 20.4 9.133 20.4 20.398s-9.136 20.398-20.4 20.398h-380.206c0.75 77.004 49.354 148.406 127.291 186.733l17.699 8.020c34.774 14.196 72.083 21.396 110.893 21.396 38.694 0 75.946-7.196 110.72-21.392l17.632-8.018c78.56-38.608 127.35-110.828 127.35-188.541v-449.714zM888.963 310.259c0-21.584-17.533-39.142-39.082-39.142h-2.506c-21.411 0-38.829 17.558-38.829 39.142v258.963c0 21.549 17.418 39.078 38.829 39.078h2.506c21.549 0 39.082-17.53 39.082-39.078v-258.963zM716.019 661.93h-6.122c-11.264 0-20.397-9.132-20.397-20.398s9.133-20.399 20.397-20.399h6.122c11.264 0 20.397 9.133 20.397 20.399s-9.133 20.398-20.397 20.398z" />
<glyph unicode="&#xe904;" glyph-name="apple" d="M715.645 941.827c-1.168 10.658-10.416 18.608-21.107 18.154-51.718-2.108-113.613-33.768-150.438-76.902-31.328-36.268-61.91-97.004-53.766-158.7 1.258-9.55 9.030-16.918 18.637-17.666 3.485-0.274 6.992-0.406 10.528-0.406 50.931 0 106.266 27.852 143.6 73.010 0.006 0.008 0.013 0.016 0.019 0.022 38.886 47.172 58.522 107.916 52.528 162.488zM631.651 805.308c-27.229-32.928-65.638-54.34-101.814-57.74 0.966 42.492 23.76 84.102 45.216 108.936 24.822 29.076 64.64 52.314 100.778 60.044-1.363-38.146-17.149-78.442-44.179-111.24zM917.133 234.592c-0.115 0.051-0.422 0.189-0.925 0.394-11.942 4.854-116.707 51.136-117.818 178.32-1.018 103.050 78.864 157.677 94.89 167.581l0.96 0.602c4.634 2.979 7.866 7.706 8.957 13.104 1.094 5.402-0.042 11.011-3.149 15.562-61.462 89.943-155.386 103.717-193.578 105.415-51.114 4.998-98.8-13.81-137.146-28.928-20.477-8.072-39.814-15.696-50.902-15.696-12.736 0-32.186 7.718-52.781 15.89-32.154 12.76-68.589 27.208-108.307 26.496-88.847-1.318-172.743-52.052-218.941-132.387-52.39-90.912-48.046-196.893-35.176-269.792 15.32-86.771 50.976-175.338 97.82-242.976 36.534-52.826 91.404-132.179 167.296-132.179 1.341 0 2.694 0.022 4.042 0.077 0.019 0.003 0.038 0.003 0.058 0.003 32.384 1.293 55.206 11.014 77.274 20.413 23.526 10.026 45.75 19.494 81.568 19.494 33.926 0 55.030-9.133 77.376-18.803 23.376-10.118 47.523-20.592 83.882-19.898 78.554 1.462 126.803 71.949 165.578 128.589 41.728 60.97 62.707 120.288 69.792 142.96l0.208 0.656c3.338 9.946-1.408 20.803-10.976 25.104zM824.442 88.912c-44-64.272-79.27-109.846-132.675-110.838-0.851-0.016-1.69-0.022-2.528-0.022-26.090 0-43.888 7.699-64.39 16.573-24 10.384-51.203 22.154-93.578 22.154-44.144 0-72.522-12.090-97.558-22.755-20.378-8.685-37.984-16.182-62.87-17.181-51.35-1.888-93.762 53.101-136.258 114.55-87.646 126.547-138.756 333.994-60.838 469.197 39.076 67.949 109.652 110.844 184.261 111.95 0.685 0.012 1.37 0.018 2.058 0.018 30.941 0 62.557-12.548 90.525-23.644 25.376-10.068 47.293-18.765 67.824-18.765 18.842 0 40.634 8.592 65.866 18.539 36.186 14.264 77.187 30.432 118.682 26.232 0.4-0.040 0.8-0.070 1.203-0.086 29.222-1.222 98.947-10.86 149.904-71.489-12.714-9.654-28.474-23.542-43.696-42.096-35.062-42.752-53.318-94.048-52.778-148.323 1.101-126.202 87.302-186.675 126.118-207.53-9.456-26.445-28.086-70.922-59.27-116.483zM288.073 131.027c-51.928 74.976-98.718 206.637-78.744 318.538 1.98 11.091-5.406 21.69-16.496 23.667-11.084 1.987-21.688-5.405-23.666-16.496-22.126-123.955 26.934-264.566 85.366-348.938 3.96-5.718 10.32-8.787 16.786-8.787 4.006 0 8.054 1.178 11.598 3.632 9.262 6.416 11.572 19.12 5.156 28.384zM229.131 554.096c-9.764 5.632-22.234 2.278-27.86-7.482-2.68-4.65-5.256-9.478-7.662-14.352-4.984-10.106-0.832-22.336 9.272-27.318 2.9-1.43 5.976-2.112 9.008-2.112 7.52 0 14.758 4.179 18.31 11.379 2.016 4.090 4.176 8.134 6.418 12.022 5.626 9.763 2.274 22.237-7.486 27.862z" />
<glyph unicode="&#xe905;" glyph-name="iot" d="M416.89 446.944c52.483 52.483 137.885 52.483 190.368 0 7.702-7.706 20.579-7.706 28.285 0 7.811 7.808 7.811 20.474 0 28.285-68.080 68.080-178.854 68.080-246.934 0.003-7.811-7.811-7.811-20.474 0-28.285 7.811-7.814 20.474-7.814 28.282-0.003zM446.358 420.701c-7.811-7.811-7.811-20.474 0-28.285s20.477-7.811 28.285 0c22.157 22.16 58.214 22.163 80.374 0 7.706-7.702 20.579-7.706 28.285 0 7.811 7.811 7.811 20.474 0 28.285-37.754 37.754-99.187 37.754-136.944 0zM530.534 359.421c-4.195 10.064-16.022 14.957-26.102 10.8-10.067-4.154-14.995-16.042-10.819-26.102 4.176-10.058 16.045-15.014 26.122-10.819 10.086 4.198 14.934 16.035 10.8 26.122zM99.514 307.165c-40.258-23.245-54.102-74.906-30.86-115.165 15.598-27.014 43.994-42.134 73.154-42.134 14.292 0 28.77 3.632 42.012 11.277 7.030 4.061 13.326 9.030 18.792 14.73l228.531-131.962c-2.192-7.494-3.389-15.411-3.389-23.603 0-46.486 37.821-84.307 84.307-84.307 46.483 0 84.304 37.821 84.304 84.307 0 8.192-1.197 16.109-3.386 23.603l228.528 131.962c5.469-5.699 11.763-10.672 18.794-14.73 13.242-7.645 27.712-11.277 42.010-11.277 29.158 0 57.558 15.123 73.152 42.134 23.245 40.259 9.402 91.92-30.858 115.165-7.034 4.061-14.49 7.027-22.163 8.912v263.869c7.674 1.885 15.133 4.832 22.163 8.89 40.259 23.245 54.102 74.907 30.858 115.165-23.242 40.258-74.906 54.102-115.162 30.858-7.034-4.062-13.334-9.034-18.803-14.738l-228.525 131.946c2.192 7.502 3.392 15.426 3.392 23.628 0 46.486-37.821 84.306-84.304 84.306-46.486 0-84.307-37.82-84.307-84.306 0-15.038 3.974-29.156 10.902-41.394 10.547-20.186 31.594-35.168 53.405-40.496v-126.2c-66.070-5.956-123.853-41.105-160.288-92.43l-109.165 63.027c4.532 15.412 4.422 31.843-0.030 47.252l91.114 52.608c9.566 5.524 12.843 17.754 7.32 27.32-5.524 9.568-17.757 12.844-27.32 7.32l-91.072-52.582c-5.468 5.704-11.768 10.678-18.802 14.738-40.258 23.244-91.92 9.4-115.164-30.858s-9.4-91.92 30.858-115.165c7.032-4.058 14.49-7.005 22.164-8.89v-263.869c-7.674-1.885-15.13-4.854-22.162-8.912zM463.968 89.491c-4.605-3.213-8.938-6.886-12.826-10.938l-228.561 131.978c4.462 15.354 4.546 31.901 0.032 47.258l108.724 62.771c36.413-51.661 94.387-87.075 160.723-93.056v-125.309c-10.064-2.461-19.584-6.806-28.093-12.704zM512.061-24c-24.432 0-44.307 19.875-44.307 44.307 0 8.394 2.346 16.25 6.419 22.947 17.35 27.763 58.419 27.766 75.773 0 4.070-6.698 6.419-14.554 6.419-22.947 0-24.432-19.875-44.307-44.304-44.307zM572.979 78.554c-11.062 11.523-25.402 19.85-40.918 23.642v125.306c66.336 5.981 124.31 41.395 160.723 93.056l108.723-62.771c-4.518-15.373-4.422-31.885 0.035-47.254l-228.563-131.978zM904.605 272.525c21.158-12.218 28.432-39.366 16.218-60.525-12.211-21.155-39.363-28.435-60.522-16.218-13.568 7.997-22.131 22.669-22.131 38.413 0.019 23.29 18.781 42.982 42.061 44.198 8.454 0.442 16.87-1.536 24.374-5.869zM838.522 667.406c1.747 13.616 9.866 25.956 21.779 32.812 21.158 12.216 48.307 4.94 60.522-16.216 12.214-21.158 4.941-48.309-16.218-60.524-7.37-4.256-15.616-6.224-23.92-5.878-23.405 0.963-42.618 20.797-42.518 44.278 0.006 1.846 0.125 3.692 0.355 5.528zM821.51 603.562c11.075-11.619 25.366-19.763 40.934-23.594v-263.933c-15.546-3.83-29.885-12.003-40.938-23.606l-108.733 62.774c12.989 28.118 20.253 59.398 20.253 92.349 0 33.222-7.386 64.749-20.576 93.043l109.059 62.966zM560.214 806.554c4.576 3.198 8.88 6.85 12.749 10.878l228.579-131.978c-4.454-15.41-4.563-31.84-0.032-47.252l-109.162-63.027c-36.438 51.325-94.221 86.474-160.288 92.43v126.2c10.077 2.462 19.648 6.818 28.154 12.75zM483.133 842.176c-9.686 8.344-15.379 20.732-15.379 33.518 0 24.43 19.875 44.306 44.307 44.306 24.429 0 44.304-19.876 44.304-44.306 0-8.294-2.294-16.060-6.278-22.704-13.978-23.318-46.346-28.554-66.954-10.814zM354.662 536.771c30.886 54.531 89.702 89.946 152.336 91.674 0 0 8.502-0.419 10.118 0 96.656-2.666 175.907-84.288 175.907-180.89 0-99.786-81.184-180.966-180.966-180.966-99.786 0-180.966 81.181-180.966 180.966 0.003 32.416 8.579 62.867 23.571 89.216zM311.668 540.595c-13.19-28.294-20.574-59.818-20.574-93.040 0-32.95 7.262-64.234 20.25-92.352l-108.73-62.774c-11.038 11.584-25.408 19.802-40.938 23.606v263.936c15.568 3.834 29.856 11.971 40.932 23.594l109.060-62.97zM119.514 623.475c-21.158 12.218-28.434 39.367-16.218 60.525 8.198 14.198 23.122 22.144 38.446 22.144 24.172 0 44.21-20.256 44.21-44.354-0.020-23.457-19.096-43.236-42.532-44.193-8.298-0.342-16.54 1.626-23.906 5.878zM141.528 278.477c17.92-0.099 34.448-11.082 41.196-27.696 8.18-20.269 0.068-44.045-18.904-54.998-21.158-12.214-48.308-4.944-60.524 16.214-12.214 21.158-4.94 48.31 16.218 60.525 6.806 3.933 14.36 5.942 22.014 5.955zM360.864 791.436c3.27-7.848 11.434-12.958 19.942-12.296 8.349 0.65 15.546 6.538 17.789 14.608 4.736 17.024-14.355 31.538-29.536 22.488-8.39-5-11.949-15.788-8.195-24.8z" />
<glyph unicode="&#xe906;" glyph-name="smart-tv" d="M759.891 846.14c-3.722 3.72-8.88 5.86-14.141 5.86-5.28 0-10.419-2.14-14.141-5.86-3.718-3.72-5.859-8.88-5.859-14.14s2.141-10.42 5.859-14.14c3.722-3.72 8.88-5.86 14.141-5.86s10.419 2.14 14.141 5.86c3.718 3.72 5.859 8.88 5.859 14.14s-2.141 10.42-5.859 14.14zM660.275 852h-600.275c-33.084 0-60-26.916-60-60v-512c0-33.085 26.916-60 60-60h54c11.046 0 20 8.957 20 20s-8.954 20-20 20h-54c-11.028 0-20 8.973-20 20v512c0 11.028 8.972 20 20 20h600.275c11.046 0 20 8.954 20 20s-8.954 20-20 20zM216.765 254.141c-3.72 3.718-8.86 5.859-14.14 5.859-5.26 0-10.42-2.138-14.14-5.859s-5.86-8.88-5.86-14.141c0-5.261 2.14-10.419 5.86-14.138 3.72-3.722 8.88-5.862 14.14-5.862s10.42 2.141 14.14 5.862c3.72 3.718 5.86 8.877 5.86 14.138s-2.14 10.419-5.86 14.141zM963.958 852h-143.334c-11.046 0-20-8.954-20-20s8.954-20 20-20h143.334c11.027 0 20-8.972 20-20v-512c0-11.027-8.973-20-20-20h-683.333c-11.046 0-20-8.957-20-20s8.954-20 20-20h150.335v-65.149l-92.502-60.163c-10.32-6.71-14.899-19.152-11.402-30.957 3.501-11.802 14.125-19.731 26.435-19.731h316.934c12.31 0 22.934 7.93 26.432 19.731 3.501 11.802-1.082 24.246-11.402 30.957l-92.499 60.163v65.149h371.002c33.085 0 60 26.915 60 60v512c0 33.084-26.915 60-60 60zM628.528 84h-233.136l66.47 43.235c5.674 3.69 9.098 9.997 9.098 16.765v76h82v-76c0-6.768 3.421-13.075 9.094-16.765l66.474-43.235zM606.621 455.926l-63.050 144c-3.226 7.366-10.534 12.038-18.589 11.981-8.042-0.109-15.235-5.021-18.259-12.47l-58.496-144c-4.16-10.234 0.768-21.901 11.002-26.058 2.464-1.002 5.014-1.475 7.52-1.475 7.898 0 15.379 4.707 18.534 12.477l40.656 100.086 44.042-100.582c4.429-10.118 16.221-14.726 26.342-10.298 10.118 4.432 14.73 16.224 10.298 26.339zM708.534 499.907h1.213c30.88 0 56 25.12 56 56 0 30.877-25.12 56-56 56h-49.501c-11.043 0-19.997-8.954-19.997-20v-144c0-11.046 8.954-20 20-20s20 8.954 20 20v23.712l38.016-38.016c3.907-3.904 9.024-5.856 14.144-5.856 5.117 0 10.237 1.952 14.141 5.856 7.808 7.811 7.808 20.474 0 28.288l-38.016 38.016zM680.25 571.907h29.501c8.822 0 16-7.178 16-16s-7.178-16-16-16h-29.501v32zM166.626 539.907h-2.626c-8.822 0-16 7.178-16 16s7.178 16 16 16h18.126c11.046 0 20 8.954 20 20s-8.954 20-20 20h-18.126c-30.878 0-56-25.123-56-56 0-30.88 25.122-56 56-56h2.626c8.822 0 16-7.178 16-16s-7.178-16-16-16h-38.626c-11.046 0-20-8.954-20-20s8.954-20 20-20h38.626c30.878 0 56 25.12 56 56s-25.122 56-56 56zM394.72 610.358c-7.44 3.11-16.022 1.446-21.766-4.218l-45.389-44.8-45.39 44.8c-5.742 5.664-14.326 7.328-21.764 4.218-7.442-3.11-12.286-10.387-12.286-18.454v-144c0-11.043 8.954-20 20-20s20 8.957 20 20v96.16l25.39-25.059c7.791-7.686 20.309-7.686 28.101 0l25.389 25.059v-96.16c0-11.043 8.954-20 20-20s20 8.957 20 20v144c0 8.067-4.845 15.344-12.285 18.454zM892.624 611.907h-72c-11.046 0-20-8.954-20-20s8.954-20 20-20h16v-121.958c0-11.043 8.957-20 20-20 11.046 0 20 8.957 20 20v121.958h16c11.046 0 20 8.954 20 20s-8.954 20-20 20z" />
<glyph unicode="&#xe907;" glyph-name="smart-watch" d="M472 708c-11.040 0-20-8.96-20-20s8.96-20 20-20c11.040 0 20 8.96 20 20s-8.96 20-20 20zM812 468c33.085 0 60 26.915 60 60v40c0 33.085-26.915 60-60 60h-20v20c0 74.094-57.869 134.892-130.778 139.662-17.197 98.272-21.968 125.8-22.243 126.9-6.704 26.754-30.646 45.438-58.218 45.438h-217.523c-27.571 0-51.515-18.684-58.219-45.438-0.276-1.1-5.046-28.628-22.244-126.9-72.908-4.77-130.776-65.568-130.776-139.662v-400c0-74.093 57.868-134.893 130.776-139.661l21.944-125.482c0.084-0.477 0.184-0.95 0.3-1.418 6.704-26.755 30.647-45.44 58.219-45.44h217.523c27.571 0 51.514 18.685 58.218 45.437 0.118 0.47 0.218 0.944 0.301 1.418l21.942 125.482c72.909 4.771 130.778 65.571 130.778 139.664v20h20c33.085 0 60 26.915 60 60v40c0 33.085-26.915 60-60 60h-20v40h20zM792 588h20c11.027 0 20-8.973 20-20v-40c0-11.027-8.973-20-20-20h-20v80zM343.974 905.42c2.435 8.616 10.269 14.58 19.264 14.58h217.523c8.995 0 16.832-5.964 19.264-14.58l20.531-117.42h-297.114l20.531 117.42zM600.026-9.421c-2.432-8.614-10.269-14.579-19.264-14.579h-217.523c-8.995 0-16.829 5.965-19.264 14.579l-20.531 117.421h297.114l-20.531-117.421zM752 248c0-55.139-44.861-100-100-100h-360c-55.14 0-100 44.861-100 100v400c0 55.14 44.86 100 100 100 19.364 0 339.61 0 360 0 55.139 0 100-44.86 100-100 0-60.371 0-335.866 0-400zM812 388c11.027 0 20-8.973 20-20v-40c0-11.027-8.973-20-20-20h-20v80h20zM652 708h-100c-11.043 0-20-8.954-20-20s8.957-20 20-20h100c11.027 0 20-8.972 20-20v-180h-100c-8.611 0-16.253-5.507-18.973-13.677l-21.027-63.078-21.027 63.082c-2.72 8.166-10.362 13.674-18.973 13.674h-24.384l-36.211 144.851c-2.227 8.902-10.227 15.149-19.405 15.149s-17.178-6.246-19.402-15.149l-36.214-144.851h-84.384v180c0 11.028 8.972 20 20 20h60c11.043 0 20 8.954 20 20s-8.957 20-20 20h-60c-33.084 0-60-26.916-60-60v-400c0-33.085 26.916-60 60-60h360c33.085 0 60 26.915 60 60v400c0 33.084-26.915 60-60 60zM672 248c0-11.027-8.973-20-20-20h-360c-11.028 0-20 8.973-20 20v180h100c9.178 0 17.178 6.246 19.402 15.149l20.598 82.39 20.598-82.39c2.224-8.902 10.224-15.149 19.402-15.149h25.584l35.443-106.323c2.72-8.166 10.365-13.677 18.973-13.677s16.253 5.507 18.973 13.677l35.443 106.323h85.584v-180z" />
<glyph unicode="&#xe908;" glyph-name="facebook" d="M999.665 448c0-269.305-218.313-487.621-487.618-487.621s-487.619 218.317-487.619 487.621c0 269.304 218.315 487.618 487.619 487.618s487.618-218.314 487.618-487.618zM386.937 414.826h63.773v-209.357c0-9.688 3.785-13.473 13.473-13.473h80.329c11.037 0 14.501 3.529 14.501 14.694v208.775h74.683c10.587 0.066 13.923 3.339 13.923 13.795v77.378c0 10.587-3.591 14.179-14.113 14.179h-74.105c0 6.59-0.044 13.089-0.088 19.547-0.084 12.789-0.168 25.41 0.088 38.199 0 17.965 9.366 25.792 26.562 26.498 17.192 0.706 34.454 0.706 51.712 0.706 8.982 0 12.833 3.657 12.833 12.832v73.207c0 8.854-3.785 12.832-12.833 12.832h-63.071c-16.731 0.121-33.353-2.747-49.083-8.469-24.232-8.409-44.588-25.325-57.293-47.607-12.222-22.071-18.275-47.027-17.518-72.244v-56.141h-63.711c-9.882 0-13.667-3.785-13.667-13.795v-77.828c0-10.072 3.595-13.729 13.605-13.729z" />
<glyph unicode="&#xe909;" glyph-name="linkedin" d="M512.048 935.618c-269.263 0-487.619-218.356-487.619-487.618 0-269.264 218.356-487.621 487.619-487.621s487.618 218.357 487.618 487.621c0 269.263-218.353 487.618-487.618 487.618zM370.352 198.477h-118.758v357.285h118.758v-357.285zM310.976 604.547h-0.774c-39.851 0-65.625 27.433-65.625 61.719 0 35.060 26.563 61.734 67.188 61.734s65.627-26.674 66.398-61.734c0-34.286-25.773-61.719-67.187-61.719zM798.566 198.477h-118.744v191.137c0 48.037-17.196 80.797-60.164 80.797-32.805 0-52.345-22.1-60.928-43.432-3.141-7.632-3.909-18.304-3.909-28.979v-199.523h-118.747c0 0 1.554 323.763 0 357.285h118.747v-50.589c15.784 24.346 44.021 58.971 107.026 58.971 78.131 0 136.719-51.061 136.719-160.801v-204.866z" />
<glyph unicode="&#xe90a;" glyph-name="youtube" d="M999.665 448c0 269.304-218.313 487.618-487.618 487.618s-487.619-218.314-487.619-487.618c0-269.305 218.315-487.621 487.619-487.621s487.618 218.317 487.618 487.621zM352.479 631.434h319.133c12.756 0 25.384-2.513 37.164-7.395 11.783-4.883 22.488-12.039 31.503-21.060s16.165-19.73 21.040-31.514c4.875-11.787 7.376-24.415 7.369-37.171v-172.592c0.007-12.752-2.494-25.384-7.369-37.168s-12.025-22.495-21.040-31.514c-9.015-9.022-19.719-16.179-31.503-21.061-11.78-4.882-24.408-7.395-37.164-7.395h-319.133c-12.754 0-25.382 2.512-37.164 7.395s-22.486 12.039-31.501 21.061c-9.015 9.019-16.164 19.73-21.039 31.514s-7.379 24.415-7.371 37.168v172.592c-0.008 12.756 2.496 25.384 7.371 37.171 4.875 11.783 12.024 22.491 21.039 31.514 9.015 9.021 19.719 16.177 31.501 21.060s24.41 7.395 37.164 7.395zM579.672 448l-135.252-78.661v157.323l135.252-78.661z" />
<glyph unicode="&#xe90b;" glyph-name="top" horiz-adv-x="759" d="M742.84 596.499c0-10.131-3.732-20.26-11.73-28.259-15.462-15.462-41.055-15.462-56.517 0l-295.388 295.386-295.386-295.386c-15.462-15.462-41.056-15.462-56.518 0s-15.462 41.055 0 56.518l323.645 323.645c15.462 15.462 41.057 15.462 56.519 0l323.645-323.645c7.999-7.998 11.73-18.128 11.73-28.259zM419.195 911.080v-897.354c0-21.861-18.129-39.989-39.991-39.989s-39.989 18.129-39.989 39.989v897.354c0 21.861 18.128 39.989 39.989 39.989 21.862 0 39.991-18.128 39.991-39.989z" />
<glyph unicode="&#xe90c;" glyph-name="menu-mobile" d="M905.847 618.667h-787.694c-17.942 0-32.82 19.342-32.82 42.667s14.879 42.667 32.82 42.667h787.694c17.941 0 32.819-19.342 32.819-42.667s-14.878-42.667-32.819-42.667zM905.847 405.333h-787.694c-17.942 0-32.82 19.341-32.82 42.667s14.879 42.667 32.82 42.667h787.694c17.941 0 32.819-19.341 32.819-42.667s-14.878-42.667-32.819-42.667zM905.847 192h-787.694c-17.942 0-32.82 19.341-32.82 42.667s14.879 42.667 32.82 42.667h787.694c17.941 0 32.819-19.341 32.819-42.667s-14.878-42.667-32.819-42.667z" />
<glyph unicode="&#xe90d;" glyph-name="close" d="M98.359 34.21c8.54-8.602 19.781-12.881 31.021-12.881 11.23 0 22.47 4.331 31.075 12.881l351.721 351.723 351.748-351.723c8.55-8.602 19.78-12.881 31.023-12.881 11.174 0 22.404 4.331 31.010 12.881 17.143 17.148 17.143 44.941 0 62.084l-351.706 351.714 351.706 351.703c17.143 17.155 17.143 44.951 0 62.096s-44.941 17.145-62.084 0l-351.714-351.711-351.703 351.711c-17.155 17.145-44.951 17.145-62.096 0s-17.145-44.941 0-62.096l351.724-351.695-351.724-351.723c-17.145-17.143-17.145-44.937 0-62.084z" />
<glyph unicode="&#xe90e;" glyph-name="right-arrow" horiz-adv-x="569" d="M540.447 448.001c0-10.912-4.171-21.835-12.501-30.165l-426.667-426.665c-16.672-16.674-43.67-16.674-60.331 0-16.661 16.668-16.672 43.668 0 60.331l396.501 396.5-396.502 396.501c-16.672 16.672-16.672 43.67 0 60.331s43.669 16.672 60.331 0l426.667-426.667c8.33-8.33 12.501-19.253 12.501-30.165z" />
<glyph unicode="&#xe90f;" glyph-name="plus" d="M576.026 870.406c0 35.346-28.653 64-64 64s-64-28.654-64-64v-358.373h-358.401c-35.346 0-64-28.653-64-64s28.654-64 64-64h358.401v-358.427c0-35.347 28.653-64 64-64s64 28.653 64 64v358.427h358.4c35.347 0 64 28.653 64 64s-28.653 64-64 64h-358.4v358.373z" />
<glyph unicode="&#xe910;" glyph-name="right-white-arrow" horiz-adv-x="1152" d="M1104 495.988h-957.576l366.673 349.248c19.2 18.288 19.944 48.672 1.656 67.872-18.264 19.176-48.648 19.944-67.872 1.656l-418.752-398.88c-18.12-18.144-28.128-42.24-28.128-67.896 0-25.632 10.008-49.752 28.968-68.688l417.936-398.065c9.288-8.858 21.192-13.248 33.096-13.248 12.672 0 25.344 4.992 34.776 14.906 18.287 19.2 17.544 49.562-1.656 67.846l-368.208 349.249h959.088c26.496 0 48 21.504 48 48s-21.504 48-48 48z" />
<glyph unicode="&#xe911;" d="M511.963-26.066c261.823 0 474.075 212.252 474.075 474.076s-212.252 474.074-474.075 474.074c-261.824 0-474.074-212.25-474.074-474.074 0-261.823 212.25-474.076 474.074-474.076z" />
<glyph unicode="&#xe912;" d="M363.89 216.815l-173.384 185.574c-23.737 25.406-22.375 65.601 3.031 89.338s65.601 22.372 89.339-3.031l133.741-143.142 211.693 197.795c1.906 1.781 3.897 3.412 5.951 4.912l99.556 93.012c25.401 23.737 65.604 22.372 89.338-3.034 23.734-25.402 22.369-65.601-3.032-89.339l-304.058-284.088-0.325 0.347-105.177-98.276-46.672 49.931z" />
<glyph unicode="&#xe913;" glyph-name="arr-right" horiz-adv-x="768" d="M768 448l-768-443.409v886.814l768-443.405z" />
</font>
</defs>
</svg>
